#TITLE:Blaze[SDO];
#SUBTITLE:winterdream[mix]pack3;
#ARTIST:cornandbeans;
#TITLETRANSLIT:;
#SUBTITLETRANSLIT:;
#ARTISTTRANSLIT:;
#CREDIT:;
#BANNER:bn.jpg;
#BACKGROUND:bg.jpg;
#LYRICSPATH:;
#CDTITLE:cd.png;
#MUSIC:Blaze.mp3;
#OFFSET:0.228;
#SAMPLESTART:0.115;
#SAMPLELENGTH:12.000;
#SELECTABLE:YES;
#BPMS:0.000=175.000,111.000=262.500,115.000=175.000,116.500=87.500,116.625=262.500,117.500=87.500,117.625=262.500,118.375=87.500,118.500=175.000,376.375=87.500,376.625=262.500,377.375=87.500,377.625=262.500,378.500=175.000;
#STOPS:;
#BGCHANGES:;
// cache tags:
#FIRSTBEAT:0.000;
#LASTBEAT:569.000;
#SONGFILENAME:Songs/Super Dancer Online/Blaze CN(Rose - 1)/cornandbeans - Blaze.sm;
#HASMUSIC:1;
#HASBANNER:1;
#MUSICLENGTH:199.079;
// end cache tags

//---------------dance-single - Blank----------------
#NOTES:
     dance-single:
     Blank:
     Beginner:
     45:
     1.000,1.000,1.000,1.000,1.000,1654.000,702.000,941.000,0.000,200.000:

2000
0000
0000
0000
0010
0001
0010
0001
0010
0001
0010
0001
0010
0001
0010
0001
,
0010
0101
0110
3101
0010
0001
0010
0001
0010
0001
0010
0001
0010
0001
0010
0001
,
0010
1001
1010
1001
0100
1000
0100
1000
0100
1000
0100
1000
0100
1000
0100
1000
,
0100
1010
0110
1010
0100
1000
0100
1000
0100
1000
0100
1000
0100
1000
0100
1000
,
0100
1001
0101
1001
2200
0310
3001
0010
2200
0310
3001
0010
2200
0310
3001
0010
,
2200
0310
3001
0010
2200
0310
3001
0010
2200
0310
3001
0010
2200
0310
3001
0010
,
2200
0310
3001
0010
0022
0130
1003
0100
0022
0130
1003
0100
0022
0130
1003
0100
,
0022
0130
1003
0100
0022
0130
1003
0100
0022
0130
1003
0100
0022
0130
1003
0100
,
0022
0130
1003
0100
0011
0100
1010
0001
0110
1000
0101
0010
1100
0010
0101
1000
,
0110
0001
1010
0100
1001
0100
0011
0100
1010
0001
0110
1000
0101
0010
1100
0010
,
0101
1000
0110
0001
1010
0100
0011
0100
1010
0001
0110
1000
0101
0010
1001
0010
,
1100
0010
0101
1000
0110
0001
1010
0100
0011
0100
1010
0001
0110
0001
1010
0101
,
1010
0100
0011
0100
1010
0000
0112
0003
1100
0000
1012
0003
0110
0000
1102
0003
,
1010
0000
0112
0003
1100
0000
1012
0003
0110
0000
1102
0003
1010
0000
0112
0003
,
1100
0000
1012
0003
0110
0000
2011
3000
0101
0000
2110
3000
0011
0000
2101
3000
,
0110
0000
2011
3000
0101
0000
2110
3000
0011
0000
2101
3000
0110
0011
2101
3000
,
0110
0011
2101
3000
1001
0000
1120
0030
0101
0000
1021
0030
1100
0000
0121
0030
,
1001
0000
1120
0030
0101
0000
1021
0030
1100
0000
0121
0030
1001
0000
1120
0030
,
0101
0000
1021
0030
1001
0000
0211
0300
1010
0000
1201
0300
0011
0000
1210
0300
,
1001
0000
0211
0300
1010
0000
1201
0300
0011
0000
1210
0300
0001
0010
0200
0300
,
0001
0010
0200
0300
0001
0000
0100
0000
0010
0000
1000
0000
0100
0000
0001
0000
,
1000
0010
0100
0010
1000
0001
0100
0010
,
0100
1000
0011
0110
1001
1100
1001
0101
,
0011
1100
0101
0110
1001
0101
0110
1010
,
0110
0011
1101
0110
1011
1100
0111
1010
,
1110
0000
0011
0000
1010
0100
0010
0001
1010
0100
0010
0001
1010
0100
0010
0001
,
1010
0100
0010
0001
2001
0010
0100
0010
0001
0010
0100
0010
0001
0010
0100
0010
,
0001
0010
0100
0010
0001
0001
0001
0001
0011
0011
0011
0011
0111
0111
0111
0111
,
0111
0000
0111
0000
0111
0000
0111
0000
0211
0000
0011
0000
0011
0000
0011
0000
0021
0000
0001
0000
0001
0000
0001
3330
0022
0000
0000
0000
0000
0000
0000
0000
,
0000
0000
0000
0000
0000
0000
0000
0000
0000
0000
0000
0000
0000
0000
0000
0000
0000
0000
0000
0000
0000
0000
0000
0000
0200
0000
0000
0000
0000
0000
0000
0000
0000
0000
0000
0000
0000
0000
0000
0000
0000
0000
0000
0000
0000
0000
0000
0000
0000
0000
0000
0000
0000
0000
0000
0000
0000
0000
0000
0000
0000
0000
0000
0000
0300
0000
0000
0000
0000
0000
0000
0000
2000
0000
0000
0000
0000
0000
0000
0000
0000
0000
0000
0000
0000
0000
0000
0000
0000
0000
0000
0000
0000
0000
0000
0000
0000
0000
0000
0000
0000
0000
0000
0000
0000
0000
0000
0000
3000
0000
0000
0000
0000
0000
0033
0000
0000
0000
0000
0000
2200
0000
0000
0000
0000
0000
3300
0000
0000
0000
0000
0000
0020
0000
0000
0000
0000
0000
0030
0000
0000
0000
0000
0000
0002
0000
0000
0000
0000
0000
0003
0000
0000
0000
0000
0000
0020
0000
0000
0000
0000
0000
0030
0000
0000
0000
0000
0000
0202
0000
0000
0000
0000
0000
0303
0000
0000
0000
0000
0000
2000
0000
0000
0000
0000
0000
3000
0000
0000
0000
0000
0000
,
0200
0300
0020
0030
2200
3300
0020
0030
0002
0003
0020
0030
0202
0303
0020
0030
0200
0300
2000
3000
0202
0303
0020
0030
0200
0300
0020
0030
2002
3003
0020
0030
,
0200
0300
2000
3000
0202
0303
0020
0030
0002
0003
0020
0030
2200
3300
0020
0030
0200
0300
2000
3000
0220
0330
0002
0003
0020
0030
0200
0300
2002
3003
0200
0300
,
0020
0030
0200
0300
2020
3030
0002
0003
0020
0030
0200
0300
2002
3003
0200
0300
0020
0030
0002
0003
2020
3030
0200
0300
0020
0030
0200
0300
2020
3030
0002
0003
,
0020
0030
0200
0300
0022
0033
0200
0300
2000
3000
0200
0300
2020
3030
0002
0003
0020
0030
0200
0300
2002
3003
0020
0030
0200
0300
2000
3000
0202
0303
0020
0030
,
0200
0300
0020
0030
2002
3003
0020
0030
0200
0300
2000
3000
0202
0303
0020
0030
0200
0300
2000
3000
0202
0303
0020
0030
0200
0300
0020
0030
0202
0303
2000
3000
,
0200
0300
0020
0030
2002
3003
0020
0030
0002
0003
0020
0030
0202
0303
2000
3000
0200
0300
0020
0030
2002
3003
0200
0300
0020
0030
0002
0003
2020
3030
0200
0300
,
0020
0030
0002
0003
2020
3030
0200
0300
2000
3000
0200
0300
2020
3030
0002
0003
0020
0030
0200
0300
2002
3003
0020
0030
0200
0300
2000
3000
0202
0303
0020
0030
,
0002
0003
0020
0030
0202
0303
2000
3000
0200
0300
0020
0030
0202
0303
0020
0030
0002
0003
0020
0030
2100
0000
0010
0000
0001
0000
0010
3000
0100
0000
1000
0000
,
0210
0000
0001
0300
2010
0000
0100
3000
0012
0000
0100
0003
1020
0000
0000
0030
0201
0000
0010
0300
2001
0000
0010
0000
0100
0000
0010
3000
0001
0000
0010
0000
,
0102
0000
0010
0003
2100
0000
0010
3000
0201
0000
0010
0300
1002
0000
0100
0003
2010
0000
0001
3000
0210
0000
0001
0300
0010
0000
0100
0000
1002
0000
0100
0003
,
0010
0000
0100
0000
0010
0000
0100
0000
0012
0000
0100
0003
1020
0000
0100
0030
1002
0000
0100
0003
2010
0000
0001
3000
0010
0000
0100
0000
2010
3000
0201
0300
,
1020
0030
0102
0003
2010
0000
0001
3000
0010
0000
0100
0000
0012
0003
0120
0030
1200
0300
2010
3000
0102
0000
0010
0003
0100
0000
1000
0000
0100
0000
0010
0000
,
0201
0000
0010
0300
2001
0000
0010
3000
0102
0000
1000
0003
0120
0000
1000
0030
0102
0000
0010
0003
2100
0000
0010
3000
0001
0000
0010
0000
0100
0000
1000
0000
,
0120
0000
1000
0030
0102
0000
1000
0003
0210
0000
0001
0300
2010
0000
0100
3000
0012
0000
0100
0003
1020
0000
0100
0030
0001
0000
0010
0000
2100
0000
0010
3000
,
0001
0000
0010
0000
0100
0000
1000
0000
0120
0030
1002
0003
0210
0000
0001
0300
2010
0000
0001
3000
0120
0000
1000
0030
0100
0000
0010
0000
0101
0000
1010
0000
,
0101
0000
1010
0000
2100
0000
0010
0000
3001
0000
0010
0000
0100
0000
0010
0000
0001
0000
0010
0000
0200
0300
2000
3000
0200
0300
0020
0030
0200
0300
2000
3000
,
0200
0300
0020
0030
0200
0300
2000
3000
0200
0300
0020
0030
0002
0003
0020
0030
0200
0300
2000
3000
0010
0000
0001
0000
0010
0000
0100
0000
0010
0000
0001
0000
,
0010
0000
0100
0000
0010
0000
0001
0000
0010
0000
0100
0000
1000
0000
0100
0000
0010
0000
0001
0000
0200
0300
2000
3000
0200
0300
0020
0030
0200
0300
2000
3000
,
0200
0300
0020
0030
0200
0300
2000
3000
0200
0300
0020
0030
0002
0003
0020
0030
0200
0300
2000
3000
0010
0000
0001
0000
0010
0000
0100
0000
0010
0000
0001
0000
,
0010
0000
0100
0000
0010
0000
0001
0000
0010
0000
0100
0000
1000
0000
0100
0000
0010
0000
0001
0000
0200
0300
2000
3000
0200
0300
0020
0030
0200
0300
2000
3000
,
0200
0300
0020
0030
0200
0300
2000
3000
0200
0300
0020
0030
0002
0003
0020
0030
0200
0300
2000
3000
0010
0000
0001
0000
0010
0000
0100
0000
0010
0000
0001
0000
,
0010
0000
0100
0000
0010
0000
0001
0000
0010
0000
0100
0000
1000
0000
0100
0000
0010
0000
0001
0000
0200
0300
2000
3000
0200
0300
0020
0030
0200
0300
2000
3000
,
0200
0300
0020
0030
0200
0300
2000
3000
0200
0300
0020
0030
0002
0003
0020
0030
0200
0300
2000
3000
0010
0000
0001
0000
0010
0000
0100
0000
0010
0000
0001
0000
,
0010
0100
0010
0001
0010
0100
1000
0100
0010
0001
0100
0010
2001
3010
0100
0010
,
2001
3010
0100
0010
2001
3010
0100
0010
2001
3010
0100
0010
0102
1003
0100
0010
,
0102
1003
0100
0010
0102
1003
0100
0010
0102
1003
0100
0010
2001
3010
0100
0010
,
2001
3010
0100
0010
2001
3010
0100
0010
2001
3010
0100
0010
0102
1003
0100
0010
,
0102
1003
0100
0010
0102
1003
0100
0010
0102
1003
0100
0010
2001
3010
0100
0010
,
2001
3010
0100
0010
2001
3010
0100
0010
2001
3010
0100
0010
2001
3010
0100
1000
,
0102
0013
0100
1000
0102
0013
0100
1000
0102
0013
0100
1000
0102
0013
0100
0010
,
2001
3010
0100
0010
2001
3010
0100
0010
2001
3010
0100
0010
2001
3010
0100
0010
,
0102
0000
1003
0000
0100
0000
0010
0000
0102
0000
1003
0000
0100
0000
0010
0000
0102
0000
1003
0000
2222
3333
0000
0000
2022
0000
3033
0000
0000
0000
0000
0000
,
2022
3033
0000
0000
2022
3033
0000
0000
2022
3033
0000
0000
2022
3033
0000
0000
,
2022
3033
0000
0000
2022
3033
0000
0000
2202
3303
0000
0000
2022
3033
0000
0000
,
2022
3033
0000
0000
2022
3033
0000
0000
2022
3033
0000
0000
2022
3033
0000
0000
,
2022
3033
0000
0000
2022
3033
0000
0000
2202
3303
0020
0030
1101
0000
0020
0030
,
1101
0000
0020
0030
1101
0000
0020
0030
1101
0000
0020
0030
1101
0000
0020
0030
,
1101
0000
0020
0030
1101
0000
0200
0300
1011
0000
0020
0030
1101
0000
0020
0030
,
1101
0000
0020
0030
1101
0000
0020
0030
1101
0000
0020
0030
1101
0000
0020
0030
,
1101
0000
0000
0000
0020
0000
0030
0000
1101
0000
0000
0000
0200
0000
0300
0000
1011
0000
0000
0000
2101
0000
0000
3000
0210
0000
0000
0300
1021
0000
0000
0000
,
0130
0000
0000
0000
1102
0000
0000
0003
0010
0000
0000
0000
1120
0000
0000
0030
0201
0000
0000
0300
1021
0000
0000
0030
0100
0000
0000
0000
2011
0000
0000
3000
,
0100
0000
0000
0000
0112
0000
0000
0003
1000
0000
0000
0000
2110
0000
0000
3000
0001
0000
0000
0000
0211
0000
0000
0300
1000
0000
0000
0000
0112
0000
0000
0003
,
1020
0000
0000
0030
1201
0000
0000
0300
0021
0000
0000
0030
1102
0000
0000
0003
0010
0000
0000
0000
2110
0000
0000
3000
0001
0000
0000
0000
1120
0000
0000
0030
,
0201
0000
0000
0300
2011
0000
0000
3000
0210
0000
0000
0300
1021
0000
0000
0030
0102
0000
0000
0003
1210
0000
0000
0300
0001
0000
0000
0000
0121
0000
0000
0030
,
1200
0000
0000
0300
2011
0000
0000
3000
0120
0000
0000
0030
1102
0000
0000
0003
1020
0000
0000
0030
1101
0000
0000
0000
0210
0000
0000
0300
1021
0000
0000
0030
,
0102
0000
0000
0003
2110
0000
0000
3000
0201
0000
0000
0300
1021
0000
0000
0030
0102
0000
0000
0003
1210
0000
0000
0300
0001
0000
0000
0000
2011
0000
0000
3000
,
0100
0000
0000
0000
1110
0000
0000
0000
2001
0000
0000
3000
0111
0000
0000
0000
2100
0000
0000
3000
0112
0000
0000
0003
1002
0000
0000
0003
1120
0000
0000
0030
,
0021
0000
0000
0030
1201
0000
0000
0300
0210
0000
0000
0300
2011
0000
0000
3000
2100
0000
0000
3000
0122
0000
0000
0000
1130
0000
0000
0000
0110
0000
0003
0000
,
1000
0000
0211
0000
0001
0000
1001
0300
0011
0000
1120
0000
0001
0000
1001
0030
,
0100
0000
2011
0000
0100
0000
0101
3000
0010
0000
1202
0000
0310
0000
0110
0003
,
1100
0000
1021
0000
1100
0000
0101
0030
1000
0000
0112
0000
0010
0000
1100
0003
,
0110
0000
1201
0000
0011
0000
1010
0300
0011
0000
2102
0000
0010
3000
0110
0003
,
1100
0000
1021
0000
0101
0000
1100
0030
1001
0000
0211
0000
1001
0000
0011
0300
,
1010
0000
1102
0000
0110
0000
1010
0003
0110
0000
2201
0000
0010
0000
0011
3300
,
0001
0000
1120
0000
1001
0000
0100
0030
0101
0000
2011
0000
0011
0000
0110
3000
,
0110
0000
0000
0000
1102
0000
0000
0000
1100
0000
0000
0000
1010
0000
0003
0000
1010
0000
0000
0000
1201
0000
0000
0300
0020
0000
0000
0030
0002
0000
0000
0003
,
0000
0000
0000
0000
2100
0000
0000
3000
0000
0000
0000
0000
0020
0000
0000
0030
0200
0000
0000
0300
1020
0000
0000
0030
0000
0000
0000
0000
0002
0000
0000
0003
,
0000
0000
0000
0000
0210
0000
0000
0300
0000
0000
0000
0000
0002
0000
0000
0003
0000
0000
0000
0000
2011
0000
0000
0000
3000
0000
0000
0000
0020
0000
0000
0030
,
0200
0000
0000
0300
2001
0000
0000
3000
0200
0000
0000
0300
0020
0000
0000
0030
0000
0000
0000
0000
0102
0000
0000
0003
0000
0000
0000
0000
0200
0000
0000
0300
,
2000
0000
0000
3000
0102
0000
0000
0003
0020
0000
0000
0030
0200
0000
0000
0300
0020
0000
0000
0030
1102
0000
0000
0003
0000
0000
0000
0000
2000
0000
0000
3000
,
0200
0000
0000
0300
0021
0000
0000
0030
0200
0000
0000
0300
0020
0000
0000
0030
0002
0000
0000
0003
1000
0000
0000
0000
0020
0000
0000
0030
0200
0000
0000
0300
,
2000
0000
0000
3000
0102
0000
0000
0003
0020
0000
0000
0030
0200
0000
0000
0300
2000
0000
0000
3000
0211
0000
0000
0300
0000
0000
0000
0000
0020
0000
0000
0030
,
0000
0000
0000
0000
1000
0000
0000
0000
0020
0000
0000
0030
0000
0000
0000
0000
0020
0000
0000
0030
1002
0000
0000
0003
0002
0000
0000
0003
0020
0000
0000
0030
,
0020
0000
0000
0030
0201
0000
0000
0300
0200
0000
0000
0300
2000
0000
0000
3000
2000
0000
0000
3000
0020
0000
0000
0000
0000
0000
0000
0000
0000
0000
0000
0000
,
0000
0000
0000
0000
0200
0000
0000
0000
0000
0000
0000
0000
2000
0000
0000
0000
0000
0000
0000
3330
0002
0003
0020
0030
0200
0300
2000
3000
0002
0003
0020
0030
,
0200
0300
2000
3000
0002
0003
0020
0030
0200
0300
2000
3000
0002
0003
0020
0030
0200
0300
2000
3000
2000
3000
0200
0300
0020
0030
0002
0003
2000
3000
0200
0300
,
0020
0030
0002
0003
2000
3000
0200
0300
0020
0030
0002
0003
2000
3000
0200
0300
0020
0030
0002
0003
0002
0003
0020
0030
0200
0300
2000
3000
0002
0003
0020
0030
,
0200
0300
2000
3000
0002
0003
0020
0030
0200
0300
2000
3000
0002
0003
0020
0030
0200
0300
2000
3000
2000
3000
0200
0300
0020
0030
0002
0003
2000
3000
0200
0300
,
0020
0030
0002
0003
2000
3000
0200
0300
0020
0030
0002
0003
2000
3000
0200
0300
0020
0030
0002
0003
0002
0003
0020
0030
0200
0300
2000
3000
0002
0003
0020
0030
,
0200
0300
2000
3000
0002
0003
0020
0030
0200
0300
2000
3000
0002
0003
0020
0030
0200
0300
2000
3000
2000
3000
0200
0300
0020
0030
0002
0003
2000
3000
0200
0300
,
0020
0030
0002
0003
2000
3000
0200
0300
0020
0030
0002
0003
2000
3000
0200
0300
0020
0030
0002
0003
0002
0003
0020
0030
0200
0300
2000
3000
0002
0003
0020
0030
,
0200
0300
2000
3000
0002
0003
0020
0030
0200
0300
2000
3000
0002
0003
0020
0030
0200
0300
2001
3000
2000
3000
0200
0300
0020
0030
0002
0003
2000
3000
0200
0300
,
0020
0030
0002
0003
2000
3000
0200
0300
0020
0030
0002
0003
2000
3000
0200
0300
0020
0030
0002
0003
2100
0000
0010
0000
0001
0000
0010
3000
0100
0000
1000
0000
,
0210
0000
0001
0300
2010
0000
0100
3000
0012
0000
0100
0003
1020
0000
0000
0030
0201
0000
0010
0300
2001
0000
0010
0000
0100
0000
0010
3000
0001
0000
0010
0000
,
0102
0000
0010
0003
2100
0000
0010
3000
0201
0000
0010
0300
1002
0000
0100
0003
2010
0000
0001
3000
0210
0000
0001
0300
0010
0000
0100
0000
1002
0000
0100
0003
,
0010
0000
0100
0000
0010
0000
0100
0000
0012
0000
0100
0003
1020
0000
0100
0030
1002
0000
0100
0003
2010
0000
0001
3000
0010
0000
0100
0000
2010
3000
0201
0300
,
1020
0030
0102
0003
2010
0000
0001
3000
0010
0000
0100
0000
0012
0003
0120
0030
1200
0300
2010
3000
0102
0000
0010
0003
0100
0000
1000
0000
0100
0000
0010
0000
,
0201
0000
0010
0300
2001
0000
0010
3000
0102
0000
1000
0003
0120
0000
1000
0030
0102
0000
0010
0003
2100
0000
0010
0000
3001
0000
0010
0000
0100
0000
1000
0000
,
0120
0000
0000
0030
0102
0000
1000
0003
0210
0000
0001
0300
2010
0000
0100
3000
0012
0000
0100
0003
1020
0000
0100
0030
0001
0000
0010
0000
2100
0000
0010
3000
,
0001
0000
0010
0000
0100
0000
1000
0000
0110
0000
1001
0000
0210
0000
0001
0300
2010
0000
0001
3000
0120
0000
1000
0030
0100
0000
0010
0000
0101
0000
1010
0000
,
0101
0000
1010
0000
2100
0000
0010
0000
3001
0000
0010
0000
0101
0000
1010
0000
0101
0000
1010
0000
0202
0303
2020
3030
0202
0303
2020
3030
0202
0303
2020
3030
,
0202
0303
2020
3030
0202
0303
2020
3030
0202
0303
2020
3030
0202
0303
2020
3030
0202
0303
2020
3030
0101
0000
1010
0000
0101
0000
1010
0000
0101
0000
1010
0000
,
0101
0000
1010
0000
0101
0000
1010
0000
0101
0000
1010
0000
0101
0000
1010
0000
0101
0000
1010
0000
2020
3030
0202
0303
2020
3030
0202
0303
2020
3030
0202
0303
,
2020
3030
0202
0303
2020
3030
0202
0303
2020
3030
0202
0303
2020
3030
0202
0303
2020
3030
0202
0303
1010
0000
0101
0000
1010
0000
0101
0000
1010
0000
0101
0000
,
1010
0000
0101
0000
1010
0000
0101
0000
1010
0000
0101
0000
1010
0000
0101
0000
1010
0000
0101
0000
0220
0330
2002
3003
0220
0330
2002
3003
0220
0330
2002
3003
,
0220
0330
2002
3003
0220
0330
2002
3003
0220
0330
2002
3003
0220
0330
2002
3003
0220
0330
2002
3003
0110
0000
1001
0000
0110
0000
1001
0000
0110
0000
1001
0000
,
0110
0000
1001
0000
0110
0000
1001
0000
0110
0000
1001
0000
0110
0000
1001
0000
0110
0000
1001
0000
2002
3003
0220
0330
2002
3003
0220
0330
2002
3003
0220
0330
,
2002
3003
0220
0330
2002
3003
0220
0330
2002
3003
0220
0330
2002
3003
0220
0330
2002
3003
0220
0330
1001
0000
0110
0000
1001
0000
0110
0000
1001
0000
0110
0000
,
1001
0110
1001
0110
1001
0110
1001
0110
1001
0110
1001
0010
0102
1003
0100
0010
,
0102
1003
0100
0010
0102
1003
0100
0010
0102
1003
0100
0010
2001
3010
0100
0010
,
2100
0000
3010
0000
0001
0000
0010
0000
2001
0000
3010
0000
0100
0000
0010
0000
2001
0000
3010
0000
0200
0300
0020
0030
0202
0300
2003
3000
0200
0300
0020
0030
,
0202
0300
0023
0030
0200
0300
2000
3000
0202
0300
0023
0030
0200
0300
2000
3000
0202
0300
0023
0030
0200
0300
0020
0030
2002
0003
3020
0030
0200
0300
0020
0030
,
2200
0300
3020
0030
0002
0003
0020
0030
2002
0003
3020
0030
0200
0300
0020
0030
2002
0003
3020
0030
0100
0000
1000
0000
0102
0000
0013
0000
0100
0000
0010
0000
,
0102
1003
0100
1000
0102
0013
0100
1000
0102
0013
0100
0010
2001
3010
0100
0010
,
2100
3010
0001
0010
2001
3010
0100
0010
2001
3010
0000
0000
0202
0303
0000
0000
,
2002
3003
0000
0000
0202
0303
0000
0000
0022
0033
0000
0000
2020
3030
0000
0000
,
2002
0000
3003
0000
0000
0000
0000
0000
2020
0000
3030
0000
0000
0000
0000
0000
2200
0000
3300
0000
2222
3000
0000
0000
0000
0000
0000
0000
0300
0000
0000
0000
,
0000
0000
0000
0000
1100
0000
0000
0000
0000
0000
0030
0000
1100
0000
0000
0000
0000
0000
0000
0000
1010
0000
0000
0000
0000
0000
0000
0110
0000
0000
0000
0000
,
0000
0000
0000
0000
1010
0000
0000
0000
0000
1010
0000
0000
0000
0000
1010
0000
,
0000
1100
0000
0000
0000
0000
0000
0000
0000
0000
0000
0110
0000
0000
0000
0000
0000
0000
0000
0000
0000
0000
0000
0000
1100
0000
0000
0000
0000
0000
0000
0000
,
0000
0000
0000
0113
0000
0000
0000
0000
0011
0000
0000
0000
0000
0000
0000
0000
1001
0000
0000
0000
1010
0000
0000
0000
0101
0000
0000
0011
0000
0000
0000
0000
,
0000
1001
0011
1100
0110
0000
0000
0110
,
0000
0000
0000
0000
0000
0101
0000
0000
0000
0000
0000
0000
0000
0000
1010
0000
0000
0000
0000
0011
0000
0000
0000
0000
0000
0000
0000
0000
0000
0000
0000
0000
,
0000
0000
0000
0011
0000
0000
0000
0000
0000
0000
0000
0000
0011
0000
0000
0000
0000
0000
0000
0000
0101
0000
0000
0000
0000
0000
1010
0000
0000
0000
0000
0000
,
0000
0000
0000
0000
1100
0000
0000
0000
0000
0000
0000
0000
0000
0000
0000
0000
1001
0000
0000
0000
0000
0000
0000
0000
0000
0000
0110
0000
0000
0000
0000
0011
,
0000
0000
0011
0110
1100
0110
0000
1001
,
0101
0000
1010
0000
0110
0000
0000
0000
0000
0000
0000
0101
0000
0000
0000
1100
,
0000
0000
0000
0110
0000
0000
0011
0000
0000
0000
0000
0000
0000
0011
0000
0000
,
0000
0000
0011
0000
0000
0000
0000
1100
0000
0000
0110
0000
0000
0000
0000
0011
,
0000
0000
0000
1000
0000
0100
0001
0000
,
0010
0000
0000
0000
0000
0000
0000
0000
0100
0000
0000
0000
0000
0000
0000
0000
1000
0000
0000
0000
0000
0000
0000
0000
0010
0010
0000
0000
0000
0000
0000
0000
0000
0000
0000
0000
0000
0000
0000
0000
0001
0000
0000
0000
0000
0000
0000
0000
0010
0000
0000
0000
0000
0000
0000
0000
0100
0000
0000
0000
0000
0000
0000
0000
,
1000
0000
0000
0000
0000
0000
0000
1000
0000
0000
0000
0000
0001
0000
0000
0000
,
0000
0010
0000
0000
0100
0000
0000
0000
0000
0000
0000
0000
0000
0000
0000
0000
;
